在奇艺-最新高清电影迅雷下载,电影天堂,专业的BT种子发布基地

留言/求片 | 资源搜索 | 发布资源 | 加入收藏

首页 » 其他资源 » 爵迹 L.O.R.D.Legend.of.Ravaging.Dynasties.2016.4K.2160p WEB-DL.H264.AAC-Npuer 中文(内嵌)

爵迹资源介绍

 

 ◎译  名 爵迹 
 ◎片  名 L.O.R.D: Legend of Ravaging Dynasties 
 ◎年  代 2016 
 ◎国  家 中国大陆 
 ◎类  别 动画 / 奇幻 
 ◎语  言 普通话 
 ◎字  幕 简体中文/英文 
 ◎IMDb评分  3.5/10 from 229 users 
 ◎IMDb链接  http://www.imdb.com/title/tt4819576/ 
 ◎文件格式 x264 + AAC 
 ◎视频尺寸 3840x1616 
 ◎文件大小 1CD 6.85 GiB 
 ◎片  长 1h 57 min 
 ◎导  演 郭敬明 Jingming Guo 
 ◎主  演 范冰冰  Bingbing Fan   鬼山莲泉 
吴亦凡  Kris Wu   银尘 
陈学冬  Xuedong Chen   麒零 
陈伟霆  William Chan   幽冥 
郭采洁  Amber Kuo   特蕾娅 
杨幂  Mini Yang   神音 
林允  Jelly Lin   天束幽花 
严屹宽  Yikuan Yan   鬼山缝魂 
李治廷  Aarif Lee   霓虹 
王源  Roy Wang   苍白少年 
汪铎  Tony   漆拉 
郭敬明  Jingming Guo   魂兽雪刺 
   
   
   
 ◎简  介 

       传说中的神话奥汀大陆分为水、风、火、地四个国家,每个国家都有精通魂术的人,其中最厉害的七个被称为王爵。水国普通男孩麒零(陈学冬 饰)离奇地被七度王爵银尘(吴亦凡饰)收为使徒,卷入了这场魂术的风暴,水国隐藏的秘密也渐渐浮出水面。 
       在奥汀大陆这个神秘的世界里,西之亚斯兰帝国七度王爵银尘寻找到自己的使徒麒零,却无意中发现了上代一度王爵吉尔伽美什可能还活着的秘密,于是义无反顾的投入到追寻之中,而与此同时作为侵蚀者的王爵幽冥(陈伟霆 饰)、特蕾娅(郭采洁 饰)也收到了对银尘和鬼山莲泉(范冰冰 饰)等人的杀戮红讯。一场王爵和使徒们为了真相和荣誉的战役一触即发。 
General 
Format                         : MPEG-4 
Format profile                 : Base Media 
Codec ID                       : isom 
File size                      : 6.85 GiB 
Duration                       : 1h 57mn 
Overall bit rate mode          : Variable 
Overall bit rate               : 8 342 Kbps 
Encoded date                   : UTC 2016-10-27 09:21:03 
Tagged date                    : UTC 2016-10-27 09:21:03 

Video 
ID                             : 1 
Format                         : AVC 
Format/Info                    : Advanced Video Codec 
Format profile                 : High@L5.1 
Format settings, CABAC         : Yes 
Format settings, ReFrames      : 4 frames 
Codec ID                       : avc1 
Codec ID/Info                  : Advanced Video Coding 
Duration                       : 1h 57mn 
Bit rate                       : 8 073 Kbps 
Maximum bit rate               : 54.2 Mbps 
Width                          : 3 840 pixels 
Height                         : 1 616 pixels 
Display aspect ratio           : 2.40:1 
Frame rate mode                : Variable 
Frame rate                     : 24.000 fps 
Minimum frame rate             : 23.835 fps 
Maximum frame rate             : 24.246 fps 
Color space                    : YUV 
Chroma subsampling             : 4:2:0 
Bit depth                      : 8 bits 
Scan type                      : Progressive 
Bits/(Pixel*Frame)             : 0.054 
Stream size                    : 6.63 GiB (97%) 
Encoded date                   : UTC 2016-10-27 06:55:31 
Tagged date                    : UTC 2016-10-27 09:21:27 
Color primaries                : BT.709 
Transfer characteristics       : BT.709 
Matrix coefficients            : BT.709 

Audio 
ID                             : 2 
Format                         : AAC 
Format/Info                    : Advanced Audio Codec 
Format profile                 : LC 
Codec ID                       : 40 
Duration                       : 1h 57mn 
Bit rate mode                  : Variable 
Bit rate                       : 256 Kbps 
Maximum bit rate               : 263 Kbps 
Channel(s)                     : 2 channels 
Channel positions              : Front: L R 
Sampling rate                  : 48.0 KHz 
Compression mode               : Lossy 
Stream size                    : 215 MiB (3%) 
Encoded date                   : UTC 2016-10-27 09:21:26 
Tagged date                    : UTC 2016-10-27 09:21:27 

 
 
 
 
 
 
郑重声明:
爵迹迅雷下载资源、爵迹百度云资源等影视作品均是在网上搜集,任何涉及商业盈利目的均不得使用,否则产生的一切后果将由您自己承担!本站将不对本站的任何内容负任何法律责任!该下载内容仅做宽带测试使用,请在下载后24小时内删除。请购买正版!

爵迹迅雷下载

爵迹共享用户: 在奇艺更新员

发布时间: 2016/11/15 19:12:48

更新时间: 无更新

分享情况: 做种 0, 下载 0, 完成 0

健 康 度: 0

点击此处下载爵迹BT种子

使用磁力链下载爵迹

迅雷离线下载

迅雷看看在线播放

《爵迹》文件信息 文件总数:1,文件总大小:6.9GB

 
  • 视频文件 L.O.R.D.Legend.of.Ravaging.Dynasties.2016.WEB-DL.4K.H264.AAC-npuer.mp4(6.9GB)
 

网友评论(0)

正在加载评论,请稍候......
发表我的看法(评论内容长度最多允许 1000 字)
评论内容
验证码